Piraci z Karaibów:...

INFO : produkcja: Australia , USA premiera: 26 maja 2017 (Polska) 11 maja 2017 (świat) reżyseria: Joachim Rønning , Espen Sandberg scenariusz: Jeff Nathanson gatunek: Fantasy , Przygodowy OPIS : Złowrogi korsarz ucieka z mitycznego więzienia...

pobierz torrent
 

Kształt wody / The...

[info] Tytuł: The Shape of Water Polski Tytuł: Kształt wody ================== Reżyseria: Guillermo del Toro Scenariusz: Guillermo del ToroVanessa Taylor Gatunek: Fantasy Produkcja: USA Premiera: 16 lutego 2018 (Polska) 31 sierpnia 2017 (świa...

pobierz torrent
 

Siedem sióstr / Wh...

[info] Tytuł: What Happened to Monday / Seven Sisters Polski Tytuł: Siedem sióstr ================== Ocena: IMDB - 6.9/10 (48134), Filmweb - 6.7/10 (4650) Produkcja: Wielka Brytania Gatunek: Thriller, Sci-Fi Czas trwania: 123 min. Premiera: 18....

pobierz torrent
Lucifer S02E15 - Deceptive Little Parasite [720p.WEB-DL.H.264.AC3] [Lektor PL]

Lucifer S02E15 - Deceptive Little Parasite [720p.WEB-DL.H.264.AC3] [Lektor PL]


Kategoria: TV / SERIALE / ZAGRANICZNE

Zaakceptował: nie wymagał akceptacji
Liczba pobrań: 165
Ostatnia aktualizacja: 2017-05-18 19:35:13

Dodał: silver230 Data: 18-05-2017 Komentarze: 0
Rozmiar: 1.32 GB format: ZAGRANICZNE Seed: 75Peer: 21
Info Obsada Opis Szczegóły Media
INFO:

produkcja: USA
gatunek: Kryminał, Fantasy
reżyseria: Len Wiseman, Nathan Hope, Tim Matheson
scenariusz: Tom Kapinos
muzyka: Marco Beltrami, Dennis Smith
zdjęcia: Glen Keenan
czas trwania: ok. 44 min.

OPIS:

Nieszczęśliwy i znudzony swoim bytem Lucifer Morningstar porzuca funkcję Władcy Piekieł i udaje się do Los Angeles, gdzie zostaje właścicielem luksusowego klubu nocnego.

OBSADA:

Tom Ellis - Lucifer Morningstar
Rachael Harris - Dr Linda Martin
Lesley-Ann Brandt - Mazikeen "Maze"
Lauren German - Chloe Dancer
Nicholas Gonzalez - Dan
D.B. Woodside - Amenadiel
Scarlett Estevez - Trixie

DANE:

Format : Matroska
Format version : Version 4 / Version 2
File size : 1.32 GiB
Duration : 43mn 47s
Overall bit rate : 4 320 Kbps
Encoded date : UTC 2017-05-17 17:49:03

Video
ID : 1
Format : AVC
Format/INFO : Advanced Video Codec
Format profile : High@L3.1
Format settings, CABAC : No
Format settings, ReFrames : 2 frames
Codec ID : V_MPEG4/ISO/AVC
Duration : 43mn 47s
Bit rate : 4 010 Kbps
Width : 1 280 pixels
Height : 718 pixels
Display aspect ratio : 16:9
Frame rate mode : Constant
Frame rate : 23.976 fps
Color space : YUV
Chroma subsampling : 4:2:0
Bit depth : 8 bits
Scan type : Progressive
Bits/(Pixel*Frame) : 0.182
Stream size : 1.23 GiB (93%)
Color primaries : BT.709
Transfer characteristics : BT.709
Matrix coefficients : BT.709

Audio
ID : 2
Format : AC-3
Format/INFO : Audio Coding 3
Mode extension : CM (complete main)
Format settings, Endianness : Big
Codec ID : A_AC3
Duration : 43mn 47s
Bit rate mode : Constant
Bit rate : 224 Kbps
Channel(s) : 2 channels
Channel positions : Front: L R
Sampling rate : 48.0 KHz
Bit depth : 16 bits
Compression mode : Lossy
Stream size : 70.2 MiB (5%)
Language : Polish

DETALE TORRENTA:[ Pokaż/Ukryj ]


wczytaj więcej torrentów
Copyright © 2015 All rights reserved Best-Torrents.net | Designed by Best-Torrents.net Torrenty są własnością użytkowników. Administrator serwisu nie może ponieść konsekwencji za to co użytkownicy wstawiają, lub za to co czynią na stronie. Nie możesz używać tego serwisu do rozpowszechniania lub ściągania materiałów do których nie masz odpowiednich praw lub licencji. Użytkownicy odpowiedzialni są za przestrzeganie tych zasad. PolicyDMCA